#TITLE:Tzachitx;
#SUBTITLE:(steps by sente3);
#ARTIST:Pilchard;
#TITLETRANSLIT:;
#SUBTITLETRANSLIT:;
#ARTISTTRANSLIT:;
#CREDIT:;
#BANNER:Tzachitx bn.png;
#BACKGROUND:Tzachitx bg.png;
#LYRICSPATH:;
#CDTITLE:;
#MUSIC:Tzachitx.mp3;
#OFFSET:-0.060;
#SAMPLESTART:158.460;
#SAMPLELENGTH:19.200;
#SELECTABLE:YES;
#BPMS:0.000=200.000;
#STOPS:;
#BGCHANGES:;
// cache tags:
#FIRSTBEAT:0.000;
#LASTBEAT:777.479;
#SONGFILENAME:Songs/Music V.I.P ^_^/Tzachitx(sente3)/Tzachitx.sm;
#HASMUSIC:1;
#HASBANNER:1;
#MUSICLENGTH:240.143;
// end cache tags

//---------------dance-single - ----------------
#NOTES:
     dance-single:
     :
     Challenge:
     19:
     1.000,1.000,1.000,0.462,1.000,2943.000,362.000,111.000,0.000,11.000:
0100
0000
0100
0100
0100
0000
0010
0000
0001
0000
0001
0001
0001
0000
0100
0100
,
0000
0000
0000
0000
1000
0000
1000
0000
1000
0000
0000
0000
0000
0000
0000
0000
0010
0000
0000
0000
0100
0000
0000
0000
0000
0000
0100
0010
0100
0010
0100
0010
,
1000
0000
0000
0000
0000
0000
0000
0000
1000
0000
0000
0000
1000
0000
0000
0000
1000
0000
0000
0000
0000
0000
0000
0000
0010
0000
0000
0000
0000
0000
0000
0000
0100
0000
0000
0000
0100
0000
0000
0000
1000
0010
0001
0100
0010
0000
0000
0000
0010
0000
0000
0000
0000
0000
0000
0000
0001
0000
0000
0000
0001
0000
0000
0000
,
1000
0100
0010
0001
0010
0100
1000
0100
0010
0001
0010
0100
1000
0100
0010
0001
0010
0100
1000
0100
0010
0001
0010
0100
1000
0100
0010
0001
0010
0100
1000
0100
,
0010
0010
0010
0010
0010
0000
0100
0000
1000
1000
1000
0000
0010
0000
0001
0001
,
0001
0000
0000
0000
0000
0000
0000
0000
0010
0000
0000
0000
0010
0000
0000
0000
0001
0010
0100
1000
0001
0010
0100
1000
0001
0010
0100
1000
0001
0010
0100
1000
1000
0000
0000
0000
1000
0000
0000
0000
0000
0000
0000
0000
0010
0000
0000
0000
0010
0000
0000
0000
0000
0000
0000
0000
0001
0000
0001
0000
0001
0000
0000
0000
,
0100
0010
0001
0100
1000
0010
0100
0001
0010
0100
1000
0100
0010
0100
0001
1000
0100
0000
0000
0000
0100
0000
0000
0000
0100
0000
0000
0000
0100
0000
0000
0000
0100
0000
0000
0000
0000
0000
0000
0000
1000
0000
0000
0000
1000
0000
0000
0000
1000
0000
0000
0000
0000
0000
0000
0000
0010
0000
0000
0000
0010
0000
0010
0000
,
1000
0001
0010
1000
0100
0001
0010
0100
0010
1000
0100
0001
0010
0001
0100
1000
0010
0100
0001
0010
0001
1000
0100
0010
0100
0001
0010
0100
1000
0100
0010
0001
,
0010
0000
0000
0000
0100
0000
0100
0100
0100
0000
0100
0000
0100
0000
0000
0000
0010
0000
0010
0000
0000
0000
1000
0000
1000
0000
1000
0000
1000
0000
0010
0100
,
0010
0001
0010
0100
0010
0000
0000
0000
0100
0000
0100
0000
0100
0000
0100
0000
0100
0000
0000
0000
0001
0000
0000
0000
0010
0000
0010
0000
1000
0100
0010
0001
,
0010
0001
0100
0010
1000
0100
0010
0100
0001
0010
0100
1000
0100
0001
0010
0100
0001
0010
0100
1000
0010
0100
1000
0001
0100
1000
0001
0010
1000
0001
0010
0100
,
0001
0000
0000
0000
0000
0000
0000
0000
0010
0000
0000
0000
0010
0000
0000
0000
0010
0000
0000
0000
0000
0000
0000
0000
1000
1000
0000
0000
0010
0010
0000
0000
0100
0100
0000
0000
0001
0001
0000
0000
0010
0010
0000
0000
0000
0000
0000
0000
1000
0000
0000
0000
0000
0000
0000
0000
0010
0000
0000
0000
0010
0000
0010
0000
,
0010
0000
0000
0000
0000
0000
0000
0000
0100
0000
0000
0000
0001
0000
0001
0001
0001
0000
0000
0000
0000
0000
0000
0000
0010
0000
0000
0000
0100
0000
0000
0000
1000
0100
0010
0001
1000
0100
0010
0001
1000
0000
0000
0000
0000
0000
0000
0000
0100
0000
0000
0000
0000
0000
0000
0000
0010
0000
0000
0000
0010
0000
1000
0100
,
0001
0010
1000
0100
0001
0010
1000
0100
0001
0010
1000
0100
0001
0010
1000
0100
0001
0000
0000
0000
0000
0000
0000
0000
0010
0000
0000
0000
0010
0000
0000
0000
0010
0000
0000
0000
0010
0000
0000
0000
0001
0000
0100
0000
0010
0000
1000
0000
0100
0000
0000
0000
0100
0000
0000
0000
0100
0000
0000
0000
0000
0000
0000
0000
,
0001
0010
1000
0100
0010
0001
0010
1000
0100
1000
0001
0010
0001
0100
0010
1000
0100
0001
0010
0100
0001
0010
1000
0100
0001
0100
0010
0100
1000
0001
0010
0100
0001
0010
1000
0010
0100
0001
0010
0100
1000
0001
0010
1000
0100
0010
0100
0001
0010
0100
0001
1000
0100
0010
1000
0001
0010
0100
1000
0100
0010
0100
0001
0010
,
1000
0000
0100
0100
0100
0100
0100
0000
0000
0000
0010
0010
0010
0010
0010
0010
,
1000
0000
1000
1000
1000
0000
0100
0000
0001
0000
0001
0001
0001
0000
0010
0010
,
0000
0000
0000
0000
0100
0000
0100
0000
0100
0000
0000
0000
0000
0000
0000
0000
0001
0000
0000
0000
0100
0000
0000
0000
0000
0000
0001
0010
0001
0010
0001
0010
,
0100
0000
0000
0000
0000
0000
0000
0000
0010
0000
0000
0000
0010
0000
0000
0000
0010
0000
0000
0000
0000
0000
0000
0000
0100
0000
0000
0000
0000
0000
0000
0000
0001
0000
0000
0000
0001
0000
0000
0000
0100
1000
0001
0010
0100
0000
0000
0000
0001
0000
0000
0000
0000
0000
0000
0000
0010
0000
0000
0000
0010
0000
0000
0000
,
0001
0010
0100
0010
0001
0010
0100
0010
0001
0010
0100
1000
0100
0010
0100
1000
0100
0010
0001
0010
0100
0010
0001
0010
0100
1000
0100
0010
0100
1000
0100
0010
,
0001
0001
0001
0001
0001
0000
0010
0000
0001
0001
0001
0000
1000
0000
0010
0010
,
0010
0000
0000
0000
0000
0000
0000
0000
0100
0000
0000
0000
0100
0000
0000
0000
1000
0100
0010
0001
1000
0100
0010
0001
1000
0100
0010
0001
1000
0100
0010
0001
0100
0000
0000
0000
0100
0000
0000
0000
0000
0000
0000
0000
0001
0000
0000
0000
0001
0000
0000
0000
0000
0000
0000
0000
0100
0000
0100
0000
0100
0000
0000
0000
,
1000
0010
0001
0010
1000
0100
0010
1000
0001
0100
1000
0010
0001
0100
0001
1000
0010
0000
0000
0000
0010
0000
0000
0000
0010
0000
0000
0000
0010
0000
0000
0000
0010
0000
0000
0000
0000
0000
0000
0000
0001
0000
0000
0000
0001
0000
0000
0000
0001
0000
0000
0000
0000
0000
0000
0000
0100
0000
0000
0000
0100
0000
0100
0000
,
0010
0100
0010
0001
0100
0010
1000
0100
0010
0100
1000
0010
0100
0001
0010
1000
0001
0100
0010
1000
0001
1000
0001
0010
0100
0001
0010
0001
1000
0100
0001
0010
,
0100
0000
0000
0000
1000
0000
1000
1000
1000
0000
1000
0000
1000
0000
0000
0000
0001
0000
0001
0000
0000
0000
0010
0000
0010
0000
0010
0000
0010
0000
0100
0010
,
0100
1000
0100
0010
0100
0000
0000
0000
0010
0000
0010
0000
0010
0000
0010
0000
0010
0000
0000
0000
0001
0000
0000
0000
0010
0000
0010
0000
0010
0100
0010
1000
,
0010
0100
0001
0010
1000
0001
0010
0100
0001
1000
0100
1000
0010
0001
1000
0100
1000
0100
0010
0001
0100
0010
0001
1000
0010
0001
1000
0100
0001
1000
0100
0010
,
1000
0000
0000
0000
0000
0000
0000
0000
0010
0000
0000
0000
0010
0000
0000
0000
0010
0000
0000
0000
0000
0000
0000
0000
0001
0001
0000
0000
1000
1000
0000
0000
0010
0010
0000
0000
0001
0001
0000
0000
0100
0100
0000
0000
0000
0000
0000
0000
1000
0000
0000
0000
0000
0000
0000
0000
0100
0000
0000
0000
0100
0000
0100
0000
,
0100
0000
0000
0000
0000
0000
0000
0000
0010
0000
0000
0000
1000
0000
1000
1000
1000
0000
0000
0000
0000
0000
0000
0000
0001
0000
0000
0000
0010
0000
0000
0000
0001
0010
0100
1000
0100
0010
0001
0010
0100
0000
0000
0000
0000
0000
0000
0000
0001
0000
0000
0000
0000
0000
0000
0000
0100
0000
0000
0000
0100
0000
0001
0100
,
0010
1000
0001
0100
0010
1000
0001
0100
0010
1000
0001
0100
0010
1000
0001
0100
0010
0000
0000
0000
0000
0000
0000
0000
0001
0000
0000
0000
0001
0000
0000
0000
0001
0000
0000
0000
0001
0000
0000
0000
0010
0000
0001
0000
0010
0000
0100
0000
1000
0000
0000
0000
1000
0000
0000
0000
1000
0000
0000
0000
0000
0000
0000
0000
,
0100
0001
0010
1000
0001
0100
0001
0010
1000
0010
0100
0001
0100
1000
0001
0010
1000
0100
0001
1000
0100
0001
0010
1000
0100
1000
0001
1000
0010
0100
0001
1000
0100
0001
0010
0001
1000
0100
0001
1000
0010
0100
0001
0010
1000
0001
1000
0100
0001
1000
0100
0010
1000
0001
0010
0100
0001
1000
0010
1000
0001
1000
0100
0001
,
0010
0000
1000
1000
1000
1000
1000
0000
0000
0000
0100
0100
0100
0100
0100
0100
,
1000
0000
0110
0011
1100
0000
0100
0000
0000
0000
0010
0000
1001
0000
0000
0000
,
0000
0000
0100
0000
0011
0000
0001
0000
1010
0000
1000
0000
1001
1100
0110
0010
,
0010
0000
0000
0000
0000
0000
0000
0000
1100
0000
0000
0000
0100
0000
0000
0000
0000
0000
0000
0000
0010
0000
0000
0000
1001
0010
1000
0010
1000
0010
1000
0010
,
1000
0010
1000
0010
1000
0000
0000
0000
0110
0000
0000
0000
0100
0000
0000
0000
1010
0000
0000
0000
1001
0000
0110
0000
0011
0000
0000
0000
1000
0000
1000
0000
,
0010
0000
1100
1001
0110
0000
0001
0000
0000
0000
1000
0000
0011
0000
0000
0000
,
0000
0000
0100
0000
0011
0000
1000
0000
0110
0000
0001
0000
1100
1010
0101
0100
,
0100
0000
0000
0000
0000
0000
0000
0000
1010
0000
0000
0000
0100
0000
0000
0000
0000
0000
0000
0000
0100
0000
0000
0000
1100
0001
0010
0001
0010
0001
0010
0001
,
0010
0001
0010
0001
0010
0000
0000
0000
1100
0000
0000
0000
0100
0000
0000
0000
1001
0000
0000
0000
1001
0000
1010
0000
0110
0000
0000
0000
0001
0000
0001
0000
,
0010
0000
0011
1100
0101
0000
1000
0000
0000
0000
0001
0000
1010
0000
0000
0000
,
0000
0000
0010
0000
1100
0000
0001
0000
0110
0000
0010
0000
1100
0101
0011
0001
,
0001
0000
0000
0000
0000
0000
0000
0000
0101
0000
0000
0000
0010
0000
0000
0000
0000
0000
0000
0000
0010
0000
0000
0000
1010
0001
1000
0001
1000
0001
1000
0001
,
1000
0001
1000
0001
1000
0000
0000
0000
0101
0000
0000
0000
1000
0000
0000
0000
0011
0000
0000
0000
1001
0000
0101
0000
1100
0000
0000
0000
0010
0000
0010
0000
,
1100
0000
0110
0000
0011
1000
0000
0000
,
0101
0011
0100
0000
,
0110
0000
0001
0000
1100
0010
0000
0000
,
0011
0100
1000
0000
,
1000
0000
1000
0000
0101
0000
0100
0010
1000
0001
0100
1000
0101
0000
0010
0001
,
0100
0000
0100
0000
0011
0000
1010
0001
0110
1000
0010
0001
1100
0000
0010
1000
,
0001
0010
0100
1000
0100
0000
0000
0000
0110
0000
0000
0000
1000
0000
0101
0010
1000
0000
0000
0000
0100
0000
1000
0000
0011
0000
0000
0000
0010
0000
0100
0000
,
0010
0000
0000
0000
0010
0000
0000
0000
0101
0000
0000
0000
1000
0000
0000
0000
1000
0000
0000
0000
0011
0000
0000
0000
0100
0000
0001
0000
0100
0000
0001
0001
,
0100
0000
0100
0000
0011
0000
0001
1000
0100
0010
0001
0100
0011
0000
1000
0010
,
0001
0000
0001
0000
1010
0000
1100
0010
1001
0100
1000
0010
0101
0000
1000
0100
,
0010
1000
0001
0100
0001
0000
0000
0000
1001
0000
0000
0000
0100
0000
0011
1000
0100
0000
0000
0000
0001
0000
0100
0000
1010
0000
0000
0000
1000
0000
0001
0000
,
1000
0000
0000
0000
1000
0000
0000
0000
0011
0000
0000
0000
0100
0000
0000
0000
0100
0000
0000
0000
1010
0000
0000
0000
0001
0000
0010
0000
0001
0000
0010
0010
,
0100
0000
0100
0000
1001
0000
0001
0010
1000
0010
0001
1000
0110
0000
1000
0001
,
0010
0000
0010
0000
0110
0000
1010
0100
0011
1000
0100
0001
1010
0000
0001
0001
,
0001
0100
0010
1000
0100
0000
0000
0000
0110
0000
0000
0000
0010
0000
1100
0001
0010
0000
0000
0000
0100
0000
1000
0000
0011
0100
0010
0100
1000
0001
0010
1000
,
0100
0010
1000
0001
0100
0000
0000
0000
1001
0000
0000
0000
0100
0000
0000
0000
0100
0000
0000
0000
1001
0000
0000
0000
0100
0000
1000
0000
0100
0000
0100
0100
,
0010
0000
0010
0000
1001
0000
1000
0100
0001
0010
0001
1000
0101
0000
1000
0001
,
0100
0000
0001
0000
0101
0000
0011
1000
0110
1000
0001
0010
1100
0000
0010
0010
,
0010
0001
0010
1000
0100
0000
0000
0000
0101
0000
0000
0000
0100
0000
1010
0100
0001
0000
0000
0000
0010
0000
0001
0000
1010
0001
0100
0010
1000
0001
0010
1000
,
0010
0001
1000
0001
0010
0000
0000
0000
0011
0000
0000
0000
1000
0000
0000
0000
1000
0000
0000
0000
0011
0000
0000
0000
0010
0000
1000
0000
0001
0000
0001
0001
,
0010
0000
0010
1100
1001
0000
1000
0100
0001
0100
1000
0001
0110
0000
0001
1000
,
0100
0000
0100
0000
0110
0000
0101
0010
1100
0011
0110
1000
0101
0000
1000
1000
,
1000
0010
0100
0001
0010
0000
0000
0000
0110
0000
0000
0000
0100
0000
0011
1000
0100
0000
0000
0000
0010
0000
0001
0000
1100
0010
0100
0010
0001
1000
0100
0001
,
0010
0100
0001
1000
0010
0000
0000
0000
1001
0000
0000
0000
0010
0000
0000
0000
0110
0000
0000
0000
0110
0000
0011
0000
1010
0000
0001
0000
0010
0000
0010
0010
,
0001
0000
0001
1010
0110
0000
0010
1000
0100
1000
0010
0100
1001
0000
0100
0010
,
1000
0000
1000
0000
1001
0000
1100
0001
1010
0101
1001
0010
1100
0000
0010
0010
,
0010
0001
1000
0100
0001
0000
0000
0000
1001
0000
0000
0000
1000
0000
0101
0010
1000
0000
0000
0000
0001
0000
0100
0000
1010
0001
1000
0001
0100
0010
1000
0100
,
0001
1000
0100
0010
0001
0000
0000
0000
0110
0000
0000
0000
0001
0000
0000
0000
1001
0000
0000
0000
1001
0000
0101
0000
0011
0000
0100
0000
0001
0000
0001
0001
,
1000
0000
1000
0101
0110
0000
0100
0001
0010
0001
0100
0010
1001
0000
0010
0100
,
0001
0000
0001
0000
1001
0000
0011
1000
0101
1010
1001
0100
0011
0000
0100
0100
,
0100
1000
0001
0010
1000
0000
0000
0000
1001
0000
0000
0000
0001
0000
1010
0100
0001
0000
0000
0000
1000
0000
0010
0000
0101
1000
0001
1000
0010
0100
0001
0010
,
1000
0001
0010
0100
1000
0000
0000
0000
0110
0000
0000
0000
1000
0000
0000
0000
1001
0000
0000
0000
1001
0000
1010
0000
1100
0000
0010
0000
1000
0000
1000
1000
,
0010
0000
0010
1100
1001
0000
1000
0100
0001
0100
1000
0001
0110
0000
0001
1000
,
0100
0000
0100
0000
0110
0000
0101
0010
1100
0011
0110
1000
0101
0000
1000
1000
,
1000
0010
0100
0001
0010
0000
0000
0000
0110
0000
0000
0000
0100
0000
0011
1000
0100
0000
0000
0000
0010
0000
0001
0000
1100
0010
0100
0010
0001
1000
0100
0001
,
0010
0100
0001
1000
0010
0000
0000
0000
1001
0000
0000
0000
0010
0000
0000
0000
0110
0000
0000
0000
0110
0000
0011
0000
1010
0000
0001
0000
0010
0000
0010
0010
,
1200
0300
0002
0000
,
0023
2030
0000
0000
,
0000
0000
3020
0000
,
2030
3002
2003
3002
0203
0000
0000
0000
,
0320
0030
0000
0000
0020
0030
0020
0000
0230
0000
0000
0000
0302
0000
0000
0000
,
0023
2030
0000
0000
,
3020
0000
0000
0230
0320
0000
0000
0000
,
0230
0302
0203
0302
2003
3200
2300
3200
,
0302
0023
0030
0000
2000
0000
0000
0000
,
3020
0230
0000
0000
,
0000
0000
0302
0000
,
0203
0320
0230
0320
2030
0000
0000
0000
,
3022
0000
0000
0000
0003
0000
0000
0000
0000
0000
0000
0000
0000
0000
0000
0000
0002
0000
0000
0000
0003
0000
0000
0030
0022
0000
0000
0000
0003
0000
0000
0000
0200
0000
0000
0000
0000
0000
0000
0000
0000
0000
0000
0000
0000
0000
0000
0030
2320
0000
0000
0000
0000
0000
0000
0000
0000
0000
0000
0000
0000
0000
0000
0000
,
3200
0000
0000
0000
0000
0000
0000
0000
2030
0000
0000
0000
0000
0000
0000
0000
0302
0000
0000
0000
0000
0000
0000
0000
0000
0000
0000
0000
0000
0000
0000
3000
2000
0000
0000
0000
0000
0000
0000
0000
0000
0000
0000
0000
0000
0000
0000
0000
0000
0000
0000
0000
0000
0000
0000
0000
0000
0000
0000
0000
0000
0000
0000
0000
,
3223
0000
0000
0000
0000
0000
0000
0000
0000
0000
0000
0000
0000
0000
0000
0000
0300
0000
0000
0000
0000
0000
0000
0000
0032
0000
0000
0000
0000
0000
0000
0000
0200
0000
0000
0000
0000
0000
0000
0000
0000
0000
0000
0000
0000
0000
0000
0003
0002
0000
0000
0000
0000
0000
0000
0000
0000
0000
0000
0000
0000
0000
0000
0000
,
2323
0000
0000
0000
0000
0000
0000
0000
3002
0000
0000
0000
0000
0000
0000
0000
0000
0000
0000
0000
0000
0000
0000
0000
0203
0000
0000
0000
0000
0000
0000
0000
0000
0000
0000
0000
0000
0000
0000
0000
0000
0000
0000
0000
0000
0000
0000
0300
0200
0000
0000
0000
0000
0000
0000
0000
0000
0000
0000
0000
0000
0000
0000
0000
,
1330
0100
1000
0100
,
0001
0010
0001
0010
,
1000
0100
1000
0100
1000
0100
1000
0100
,
0001
0010
0001
0010
0001
0010
0001
0010
0001
0010
0001
0000
1100
0000
0000
0000
,
1000
0000
1000
0011
0110
0000
0010
1000
0010
1000
0100
0010
0101
0000
1000
0100
,
0010
0000
0001
0000
0011
0000
0101
0010
1001
0110
1100
0100
0011
0000
0100
0100
,
0100
1000
0001
0010
0100
0000
0000
0000
1001
0000
0000
0000
0100
0000
0011
0100
1000
0000
0000
0000
1000
0000
0001
0000
0110
1000
0001
0100
1000
0010
0001
0010
,
1000
0100
0001
0010
1000
0000
0000
0000
0110
0000
0000
0000
1000
0000
0000
0000
1001
0000
0000
0000
0011
0000
1010
0000
1010
0000
0100
0000
0001
0000
0001
0001
,
0010
0000
0010
1100
1010
0000
0001
0100
0001
0100
1000
0001
1010
0000
0001
0010
,
1000
0000
1000
0000
1100
0000
0101
0010
1010
0101
0110
1000
0101
0000
1000
1000
,
1000
0010
0100
0001
0010
0000
0000
0000
0101
0000
0000
0000
1000
0000
0101
1000
0001
0000
0000
0000
0010
0000
0001
0000
1100
0001
0100
0010
0001
1000
0100
0010
,
0100
1000
0001
1000
0010
0000
0000
0000
1010
0000
0000
0000
0100
0000
0000
0000
0110
0000
0000
0000
0110
0000
1010
0000
0011
0000
0100
0000
1000
0000
1000
1000
,
0001
0000
0001
1100
1001
0000
0001
0100
1000
0100
1000
0001
1100
0000
0001
0100
,
1000
0000
1000
0000
1100
0000
0110
0001
1010
0011
0110
1000
0101
0000
0010
0010
,
0010
1000
0100
0001
0010
0000
0000
0000
0101
0000
0000
0000
1000
0000
0110
1000
0001
0000
0000
0000
0100
0000
0001
0000
1010
0001
0100
0010
0001
1000
0001
0010
,
0100
0010
0001
1000
0100
0000
0000
0000
1001
0000
0000
0000
0001
0000
0000
0000
0101
0000
0000
0000
0101
0000
1010
0000
0011
0000
1000
0000
0010
0000
0010
0010
,
2100
0000
0000
0000
0000
0000
0000
0000
0000
0000
0000
0000
0000
0000
0000
0000
0000
0000
0000
0000
0000
0000
0000
3000
2000
0000
0000
0000
0000
0000
0000
0000
0000
0000
0000
0000
0000
0000
0000
0000
0000
0000
0000
0000
0000
0000
0000
3000
2000
0000
0000
0000
0000
0000
0000
0000
0000
0000
0000
0000
0000
0000
0000
0000
,
0000
0000
0000
0000
0000
0000
0000
0000
3002
0000
0000
0000
0000
0000
0000
0000
0000
0000
0000
0000
0000
0000
0000
0000
0000
0000
0000
0000
0000
0000
0000
0003
0002
0000
0000
0000
0000
0000
0000
0000
0000
0000
0000
0000
0000
0000
0000
0000
0000
0000
0000
0000
0000
0000
0000
0000
0000
0000
0000
0000
0000
0000
0000
0000
,
0023
0000
0000
0000
0000
0000
0000
0000
0000
0000
0000
0000
0000
0000
0000
0000
0030
0000
0000
0000
0000
0000
0000
0000
0200
0000
0000
0000
0000
0000
0000
0000
0000
0000
0000
0000
0000
0000
0000
0000
0000
0000
0000
0000
0000
0000
0000
0300
0200
0000
0000
0000
0000
0000
0000
0000
0000
0000
0000
0000
0000
0000
0000
0000
,
0320
0000
0000
0000
0000
0000
0000
0000
2030
0000
0000
0000
0000
0000
0000
0000
0000
0000
0000
0000
0000
0000
0000
0000
3200
0000
0000
0000
0000
0000
0000
0000
0000
0000
0000
0000
0000
0000
0000
0000
0000
0000
0000
0000
0000
0000
0000
0300
0200
0000
0000
0000
0000
0000
0000
0000
0000
0000
0000
0000
0000
0000
0000
0000
,
0310
0000
0010
0101
1001
0000
0001
0010
0001
0010
1000
0001
1100
0000
0010
1000
,
0001
0000
0100
0000
0101
0000
1100
0001
0110
1001
1010
1000
0101
0000
1000
1000
,
1000
0010
0100
0001
1000
0000
0000
0000
0110
0000
0000
0000
1000
0000
0101
1000
0010
0000
0000
0000
0010
0000
0100
0000
1001
0010
0100
1000
0010
0001
0100
0001
,
0010
1000
0100
0001
0010
0000
0000
0000
1001
0000
0000
0000
0010
0000
0000
0000
0110
0000
0000
0000
0101
0000
0011
0000
0011
0000
1000
0000
0100
0000
0100
0100
,
0001
0000
0001
1010
0011
0000
0100
1000
0100
1000
0010
0100
0011
0000
0100
0001
,
0010
0000
0010
0000
1010
0000
1100
0001
0011
1100
1001
0010
1100
0000
0010
0010
,
0010
0001
1000
0100
0001
0000
0000
0000
1100
0000
0000
0000
0010
0000
1100
0010
0100
0000
0000
0000
0001
0000
0100
0000
1010
0100
1000
0001
0100
0010
1000
0001
,
1000
0010
0100
0010
0001
0000
0000
0000
0011
0000
0000
0000
1000
0000
0000
0000
1001
0000
0000
0000
1001
0000
0011
0000
0101
0000
1000
0000
0010
0000
0010
0010
,
0100
0000
0100
1010
0110
0000
0100
1000
0010
1000
0010
0100
1010
0000
0100
1000
,
0010
0000
0010
0000
1010
0000
1001
0100
0011
0101
1001
0010
1100
0000
0001
0001
,
0001
0010
1000
0100
0001
0000
0000
0000
1100
0000
0000
0000
0010
0000
1001
0010
0100
0000
0000
0000
1000
0000
0100
0000
0011
0100
1000
0001
0100
0010
0100
0001
,
1000
0001
0100
0010
1000
0000
0000
0000
0110
0000
0000
0000
0100
0000
0000
0000
1100
0000
0000
0000
1100
0000
0011
0000
0101
0000
0010
0000
0001
0000
0001
0001
,
0010
0000
0110
0011
1100
0000
0100
0000
0000
0000
0010
0000
1001
0000
0000
0000
,
0000
0000
0100
0000
0011
0000
0001
0000
1010
0000
1000
0000
1001
1100
0110
0010
,
0010
0000
0000
0000
0000
0000
0000
0000
1100
0000
0000
0000
0100
0000
0000
0000
0000
0000
0000
0000
0010
0000
0000
0000
1010
0001
0010
0001
0010
0001
0010
0001
,
0010
0001
0010
0001
0010
0000
0000
0000
0110
0000
0000
0000
0100
0000
0000
0000
1010
0000
0000
0000
1001
0000
0110
0000
0011
0000
0000
0000
1000
0000
1000
0000
,
0010
0000
0000
0000
0100
0010
0001
0010
1001
0000
0100
1000
1000
1000
0100
0000
,
0001
0000
0001
0000
0100
0000
0010
0010
1100
0000
0000
0000
0010
0010
0010
0010
,
0100
0000
0001
0001
0100
1000
0010
0000
0011
0000
0000
0000
0000
0000
0001
0000
,
0010
0000
1000
0000
0010
0000
1000
0000
0010
0000
1000
0000
0010
0000
1000
0000
0010
0000
1000
0000
0010
0000
1000
0000
0000
0010
0000
0000
1000
0000
0000
0000
0101
0000
0000
0000
0000
0000
0000
0000
0000
0000
0000
0000
0000
0000
0000
0000
0100
0000
0000
0000
0001
0000
0000
0000
0100
0000
0000
0000
1000
0000
0000
0000
,
0001
0000
0000
0000
0100
1000
0001
1000
0010
0000
1000
1000
1000
1000
0001
0000
,
1000
0100
0010
0001
0010
0100
1000
0100
0010
0001
0010
0100
1000
0100
0010
0001
0010
0100
1000
0100
0010
0001
0010
0100
1000
0100
0010
0001
0010
0100
1000
0000
0101
0010
0001
0010
0100
1000
0100
0010
0001
0010
0100
1000
0100
0010
0001
0010
0100
1000
0100
0010
0001
0010
0100
1000
0100
0010
0001
0010
0100
1000
0100
0010
,
0001
0000
0000
0000
0000
0000
0100
0000
0000
0000
0000
0000
0100
0000
0000
0000
0010
0000
0000
0000
0000
0000
0001
0000
0000
0000
0000
1000
0000
0000
0000
0000
0101
0000
0000
0000
0000
0000
0000
0000
0000
0000
0000
0000
0000
0000
0000
0000
0000
0000
0000
0000
0000
0000
0000
0000
0010
0000
0000
0000
0000
0000
0000
0000
,
0010
0000
0001
0000
0010
0000
0001
0000
0010
0000
0001
0000
0010
0000
0001
0000
0010
0000
0001
0000
0010
0000
0001
0000
0000
0010
0000
0000
0001
0000
0000
0000
1100
0000
0000
0000
0000
0000
0000
0000
0000
0000
0000
0000
0000
0000
0000
0000
1000
0000
0000
0000
0010
0000
0000
0000
1000
0000
0000
0000
0001
0000
0000
0000
,
0100
0000
0000
0000
0010
0100
0001
0100
1010
0000
0100
0001
0001
0001
0100
0000
,
0010
0000
0010
0000
1000
0000
0001
0001
0110
0000
0000
0000
1000
1000
1000
1000
,
0010
0000
0100
0100
0010
1000
0001
0000
1010
0000
0000
0000
0000
0000
0001
0000
,
1000
0000
0100
0000
0010
0000
0100
0000
1000
0000
0100
0000
0010
0000
0001
0000
0010
0000
0100
0000
0010
0000
0001
0000
0000
0010
0000
0000
0100
0000
0000
0000
1001
0000
0000
0000
0000
0000
0000
0000
0000
0000
0000
0000
0000
0000
0000
0000
0001
0000
0000
0000
0010
0000
0000
0000
0001
0000
0000
0000
1000
0000
0000
0000
,
0011
0000
0000
0000
0000
0000
0100
0000
0000
0000
0000
0011
0000
0000
0000
0000
0100
0000
0000
0000
0000
0000
0100
0000
0000
0000
0000
1000
0100
0001
0010
0100
0011
1000
0010
0100
0001
0010
0100
1000
0100
0001
0100
0000
0010
1000
0001
0100
0010
0100
0001
0010
1000
0100
0001
0010
1000
0001
0100
0010
0100
1000
0100
0000
,
1000
0100
0010
0001
1000
0100
0010
0001
1000
0100
0010
0001
1000
0100
0010
0001
1000
0100
0010
0001
1000
0100
0010
0001
1000
0100
0010
0001
1000
0100
0010
0001
1010
0100
0010
0001
1000
0100
0010
0001
1000
0100
0010
0001
1000
0100
0010
0001
1000
0100
0010
0001
1000
0100
0010
0001
1000
0100
0010
0001
1000
0100
0010
0001
,
1000
0000
0000
0000
0000
0000
0100
0000
0000
0000
0000
0000
0100
0000
0000
0000
0001
0000
0000
0000
0000
0000
1000
0000
0000
0000
0000
0001
0000
0000
0000
0000
1100
0000
0000
0000
0000
0000
0000
0000
0000
0000
0000
0000
0000
0000
0000
0000
0000
0000
0000
0000
0000
0000
0000
0000
0100
0000
0000
0000
0000
0000
0000
0000
,
0001
0000
0010
0000
1000
0000
0001
0000
0100
0000
0010
0000
0001
0000
0100
0000
0010
0000
1000
0000
0001
0000
0100
0000
0000
0010
0000
0000
0100
0000
0000
0000
1001
0000
0000
0000
0000
0000
0000
0000
0000
0000
0000
0000
0000
0000
0000
0000
0001
0000
0000
0000
1000
0000
0000
0000
0001
0000
0000
0000
0100
0000
0000
0000
,
0001
0010
0100
1000
0101
0000
0010
0100
1000
0100
0010
0001
1010
0000
0100
0001
,
0110
0000
1000
0010
0101
1000
0001
0100
1000
0010
0001
0010
1100
0000
1000
0010
,
0001
0010
0100
1000
0100
0010
0011
0010
0100
1000
0100
0010
0001
0010
0100
1000
0110
0000
0000
0000
0000
0000
0000
0000
1000
0000
0010
0000
0001
0000
0100
0000
0011
0000
0000
0000
0000
0000
0000
0000
0100
0000
0000
0000
0000
0000
0000
0000
1000
0000
0000
0000
0000
0000
0000
0000
0010
0000
0000
0000
0001
0000
0000
0000
,
0010
0000
0000
0000
0000
0000
1000
0000
0001
0000
0000
0000
0000
0000
0000
0000
0110
0000
0000
0000
0000
0000
0000
0000
0001
0000
0000
0000
1000
0000
0100
0000
0001
0100
0010
1000
0001
0100
0010
1000
0001
0000
0000
0000
0100
0010
0001
1000
0101
0000
0000
0000
0000
0000
0000
0000
0010
0000
0000
0000
0100
0000
0010
0000
,
0001
0010
0100
1000
0001
0010
0100
1000
0001
0010
0100
1000
0001
0010
0100
1000
0001
0010
0100
1000
0001
0010
0100
1000
0001
0010
0100
1000
0001
0010
0100
1000
0001
0010
0100
1000
0001
0010
0100
1000
0001
0010
0100
1000
0001
0010
0100
1000
0001
0010
0100
1000
0001
0010
0100
1000
0001
0010
0100
1000
0001
0010
0100
1000
,
0010
0000
0000
0000
0000
0000
0000
0000
0000
0000
0000
0000
0000
0000
0000
0000
0000
0000
0000
0000
0000
0000
0000
0000
0010
0000
0000
0000
0000
0000
0000
0000
0000
0000
0000
0000
0000
0000
0000
0000
0000
0000
0000
0000
0010
0000
0000
0000
0101
0000
0000
0000
0000
0000
0000
0000
0000
0000
0000
0000
0000
0000
0000
0000
0010
0000
0000
0000
0000
0000
0000
0000
0000
0000
0000
0000
0000
0000
0010
0000
0000
0000
0000
0000
0000
0000
0000
0000
0000
0000
0010
0000
0000
0000
0000
0000
0000
0000
0000
0000
0010
0000
0000
0000
0010
0000
0000
0000
1000
0000
0000
0001
0000
0000
0100
0000
0000
0010
0000
0000
1000
0000
0000
0001
0000
0000
0100
0000
0000
0010
0000
0000
1000
0000
0000
0001
0000
0000
0100
0000
0000
0010
0000
0000
1100
0000
0000
0001
0000
0000
0010
0000
0100
0000
0000
0000
1000
0000
0000
0000
0000
0000
0000
0000
0000
0001
0000
0000
0010
0000
0000
0000
0000
0000
0100
0000
0000
0000
0000
0000
0000
0000
0000
0000
0000
0000
0000
0000
1000
0000
0000
0000
,
0010
0000
1001
0000
0100
0001
0010
0000
1001
0000
0100
0001
0100
0000
1000
0000
,
0100
0000
1000
0000
1100
0000
1000
0001
0010
0001
0011
0001
1000
0100
0010
0101
,
1000
0000
0000
0000
0001
0000
0000
0000
0010
0010
0000
0000
0100
0000
0000
0000
0011
0000
0000
0000
0000
0000
0000
0000
1000
0100
1000
0100
0100
0010
0100
0010
0001
0010
0001
0010
0010
1000
0010
1000
0001
1000
0001
1000
0001
0100
0001
0100
1010
1010
0000
0000
0000
0000
0000
0000
0001
0000
0001
0000
0001
0000
0001
0000
,
1100
0000
0010
1100
0001
0010
0100
0010
1000
0100
0001
0010
1001
0000
0001
0010
,
1000
0100
0010
0100
1000
0100
0011
0100
1000
0100
0010
0100
1000
0100
0010
0100
0011
0000
0000
0000
0000
0000
0000
0000
1000
0000
0010
0000
0100
0000
0001
0000
1010
0000
0000
0000
0000
0000
0000
0000
0010
0000
0000
0000
0000
0000
0000
0000
1000
0000
0000
0000
0000
0000
0000
0000
0100
0000
0000
0000
0001
0000
0000
0000
,
0010
0000
0000
0000
1000
0000
0000
0000
0100
0000
0000
0000
0000
0000
0000
0000
1010
0000
0000
0000
0000
0000
0000
0000
0100
0000
0000
0000
0001
0000
0010
0000
1000
0001
1000
0001
1000
0001
1000
0001
0100
0000
0000
0000
0010
0100
0010
0100
1001
0000
0000
0000
0000
0000
0000
0000
0010
0000
0000
0000
0001
0000
0010
0000
,
1000
0100
0010
0001
1000
0100
0010
0001
1000
0100
0010
0001
1000
0100
0010
0001
1000
0100
0010
0001
1000
0100
0010
0001
1000
0100
0010
0001
1000
0100
0010
0001
1000
0100
0010
0001
1000
0100
0010
0001
1000
0100
0010
0001
1000
0100
0010
0001
1000
0100
0010
0001
1000
0100
0010
0001
1000
0100
0010
0001
1000
0100
0010
0001
,
0100
0000
0000
0000
0000
0000
0000
0000
0000
0000
0000
0000
0000
0000
0000
0000
0000
0000
0000
0000
0000
0000
0000
0000
0100
0000
0000
0000
0000
0000
0000
0000
0000
0000
0000
0000
0000
0000
0000
0000
0000
0000
0000
0000
0100
0000
0000
0000
1010
0000
0000
0000
0000
0000
0000
0000
0000
0000
0000
0000
0000
0000
0000
0000
0100
0000
0000
0000
0000
0000
0000
0000
0000
0000
0000
0000
0000
0000
0100
0000
0000
0000
0000
0000
0000
0000
0000
0000
0000
0000
0100
0000
0000
0000
0000
0000
0000
0000
0000
0000
0100
0000
0000
0000
0100
0000
0000
0000
0010
0000
0000
0001
0000
0000
0100
0000
0000
1000
0000
0000
0010
0000
0000
0001
0000
0000
0100
0000
0000
1000
0000
0000
0010
0000
0000
0001
0000
0000
0100
0000
0000
1000
0000
0000
0011
0000
0000
0100
0000
0000
0010
0000
1000
0000
0000
0000
0001
0000
0000
0000
0000
0000
0000
0000
0000
1000
0000
0000
0100
0000
0000
0000
0000
0000
0010
0000
0000
0000
0000
0000
0000
0000
0000
0000
0000
0000
0000
0000
0001
0000
0000
0000
,
0100
0000
0011
0000
1000
0010
0100
0000
0011
0000
1000
0100
0010
0000
0001
0000
,
0010
0000
0001
0000
0110
0000
0001
1000
0100
1000
0101
1000
0001
0010
0100
1000
,
0001
0000
0000
0000
1000
0001
0100
0001
0110
0000
1000
0010
0010
0010
1000
0000
,
0100
0000
0100
0000
1000
0000
0001
0001
1010
0000
0000
0000
0001
0001
0001
0001
,
1000
0000
0100
0100
1000
0010
0001
0000
0101
0000
0000
0000
0000
0000
0100
0000
,
0001
0000
0010
0000
0001
0000
0010
0000
0001
0000
0010
0000
0001
0000
0010
0000
0001
0000
0010
0000
0001
0000
0010
0000
0000
0001
0000
0000
0010
0000
0000
0000
1100
0000
0000
0000
0000
0000
0000
0000
0000
0000
0000
0000
0000
0000
0000
0000
1000
0000
0000
0000
0100
0000
0000
0000
1000
0000
0000
0000
0010
0000
0000
0000
,
0100
0000
0000
0000
1000
0010
0100
0010
0001
0000
0010
0010
0010
0010
0100
0000
,
0010
1000
0001
0100
0001
1000
0010
1000
0001
0100
0001
1000
0010
1000
0001
0100
0001
1000
0010
1000
0001
0100
0001
1000
0010
1000
0001
0100
0001
1000
0010
0000
1100
0001
0100
0001
1000
0010
1000
0001
0100
0001
1000
0010
1000
0001
0100
0001
1000
0010
1000
0001
0100
0001
1000
0010
1000
0001
0100
0001
1000
0010
1000
0001
,
0100
0000
0000
0000
0000
0000
1000
0000
0000
0000
0000
0000
1000
0000
0000
0000
0001
0000
0000
0000
0000
0000
0100
0000
0000
0000
0000
0010
0000
0000
0000
0000
1100
0000
0000
0000
0000
0000
0000
0000
0000
0000
0000
0000
0000
0000
0000
0000
0000
0000
0000
0000
0000
0000
0000
0000
0001
0000
0000
0000
0000
0000
0000
0000
,
0001
0000
0100
0000
0001
0000
0100
0000
0001
0000
0100
0000
0001
0000
0100
0000
0001
0000
0100
0000
0001
0000
0100
0000
0000
0001
0000
0000
0100
0000
0000
0000
1010
0000
0000
0000
0000
0000
0000
0000
0000
0000
0000
0000
0000
0000
0000
0000
0010
0000
0000
0000
0001
0000
0000
0000
0010
0000
0000
0000
0100
0000
0000
0000
,
1000
0000
0000
0000
0001
1000
0100
1000
0011
0000
1000
0100
0100
0100
1000
0000
,
0001
0000
0001
0000
0010
0000
0100
0100
1001
0000
0000
0000
0010
0010
0010
0010
,
0001
0000
1000
1000
0001
0010
0100
0000
0011
0000
0000
0000
0000
0000
0100
0000
,
0010
0000
1000
0000
0001
0000
1000
0000
0010
0000
1000
0000
0001
0000
0100
0000
0001
0000
1000
0000
0001
0000
0100
0000
0000
0001
0000
0000
1000
0000
0000
0000
0110
0000
0000
0000
0000
0000
0000
0000
0000
0000
0000
0000
0000
0000
0000
0000
0100
0000
0000
0000
0001
0000
0000
0000
0100
0000
0000
0000
0010
0000
0000
0000
,
0101
0000
0000
0000
0000
0000
1000
0000
0000
0000
0000
0101
0000
0000
0000
0000
1000
0000
0000
0000
0000
0000
1000
0000
0000
0000
0000
0010
1000
0100
0001
1000
0101
0010
0001
1000
0100
0001
1000
0010
1000
0100
1000
0000
0001
0010
0100
1000
0001
1000
0100
0001
0010
1000
0100
0001
0010
0100
1000
0001
1000
0010
1000
0000
,
0010
1000
0001
0100
0010
1000
0001
0100
0010
1000
0001
0100
0010
1000
0001
0100
0010
1000
0001
0100
0010
1000
0001
0100
0010
1000
0001
0100
0010
1000
0001
0100
0011
1000
0001
0100
0010
1000
0001
0100
0010
1000
0001
0100
0010
1000
0001
0100
0010
1000
0001
0100
0010
1000
0001
0100
0010
1000
0001
0100
0010
1000
0001
0100
,
0010
0000
0000
0000
0000
0000
1000
0000
0000
0000
0000
0000
1000
0000
0000
0000
0100
0000
0000
0000
0000
0000
0010
0000
0000
0000
0000
0100
0000
0000
0000
0000
1010
0000
0000
0000
0000
0000
0000
0000
0000
0000
0000
0000
0000
0000
0000
0000
0000
0000
0000
0000
0000
0000
0000
0000
1000
0000
0000
0000
0000
0000
0000
0000
,
0100
0000
0000
0000
0000
0000
0001
0000
0000
0000
0000
0000
0010
0000
0000
0000
0000
0000
0100
0000
0000
0000
0000
0000
1000
0000
0000
0000
0000
0000
0001
0000
0000
0000
0000
0000
0100
0000
0000
0000
0000
0000
1000
0000
0000
0000
0000
0000
0002
0000
0000
0000
0000
0000
0010
0000
0000
0000
0000
0000
0100
0000
0000
0000
0000
0000
1000
0000
0000
0000
0000
0000
0000
0000
0000
0010
0000
0000
0000
0000
0000
0000
0000
0000
1000
0000
0000
0000
0000
0000
0000
0000
0000
0000
0000
0000
0110
0000
0000
0000
0000
0000
0000
0000
0000
0000
0000
2003
0000
0000
0000
0000
0000
0000
0000
0000
0000
0000
0000
0000
0000
0000
0000
0000
0000
0000
0000
0000
0000
0000
0000
0000
0000
0000
0000
0000
0000
0000
0000
0000
0000
0000
0000
0000
0100
0000
0000
0000
0000
0000
0000
3020
0000
0000
0000
0000
0001
0000
0000
0000
0000
0000
0000
0000
0000
0000
0000
0000
0100
0000
0000
0000
0000
0000
0000
0000
0000
0000
0000
0000
0001
0000
0000
0000
0000
0000
0000
0000
2030
0000
0000
0000
,
0000
0000
0000
0000
0000
0000
0000
0000
0000
3200
0000
0000
0000
0000
0000
0000
0000
0000
0000
0000
0000
0000
0000
0000
0000
0000
0300
0000
0000
0000
0000
0000
0000
0000
0000
0000
0000
0000
0000
0000
0000
0000
0000
0000
0000
0000
0000
0000
,
0000
0000
0000
0000
0000
0000
0000
0000
0000
0000
0000
0000
0000
0000
0000
0000
0000
0000
0000
0000
0000
0000
0000
0000
0000
0000
0000
0000
0000
0000
0000
0000
0002
0000
0000
0000
0000
0000
0000
0000
0000
0000
0000
0000
0000
0000
0000
0000
0000
0000
0000
0000
0000
0000
0000
0000
0000
0000
0000
0000
0000
0000
0000
0000
0000
0000
0000
0000
0000
0000
0000
0000
0000
0000
0000
0000
0000
0000
0000
0000
0000
0000
0000
0000
0000
0000
0000
0000
0000
0000
0000
0000
0000
0000
0000
0000
0000
0000
0000
0203
0000
0000
0000
0000
0000
0000
0000
0000
0000
0000
0000
0000
0000
0000
0000
0000
0000
0000
0000
0000
0000
0000
0000
0000
0000
0000
0000
0000
0000
0000
0320
0000
0000
0000
0000
0000
0000
0000
0000
0000
0000
0000
0000
0000
0000
0000
0000
0000
0000
0000
0000
0000
0000
0000
0000
0000
0000
0000
0000
0000
0000
0000
0000
0000
0000
0000
0000
0000
0000
0000
0000
0000
0000
0000
0000
0000
0000
0000
0000
0000
0000
0000
0000
0000
0000
0000
0000
0000
0000
0000
0000
0000
,
0000
0000
0000
0000
2030
0000
0000
0000
0000
0000
0000
0000
0000
0000
0000
0000
0000
0000
0000
0000
0000
0000
0000
0000
0000
0000
0000
0000
0000
0000
0000
0000
0000
0000
0000
0000
0000
0000
0000
0000
0000
0000
0000
0000
0000
0000
0000
0000
3200
0000
0000
0000
0000
0000
0000
0000
0000
0000
0000
0000
0000
0000
0000
0000
0000
0000
0000
0000
0000
0000
0000
0000
0000
0000
0000
0000
0000
0000
0000
0000
0000
0000
0300
0000
0000
0000
0000
0000
0000
0000
0000
0000
0000
0000
0000
0000
0000
0000
0000
0000
0000
0000
0000
0000
0000
0000
0000
0000
0000
0000
0000
0000
0000
0000
0000
0000
0000
0000
0000
0000
0000
0000
0000
0000
0000
0000
0000
0000
0000
0000
0000
0000
0000
0000
0000
0000
0000
0000
0000
0000
0000
0000
0000
0000
0000
0000
0000
0000
0000
0000
0000
0000
0000
0000
0000
0000
0000
0000
0000
0000
0000
0000
0000
0000
0000
0000
0000
0000
0000
0000
0000
0000
0000
0000
0000
0000
0000
0000
0000
0000
0000
0000
0000
0000
0000
0000
0000
0000
0000
0000
0000
0000
,
0000
0000
0000
0000
,
0200
0000
0000
0000
0000
0000
0000
0000
0000
0000
0000
0000
0000
0000
0000
0000
0000
0000
0000
0000
0000
0000
0000
0000
0000
0000
0000
0000
0000
0000
0000
0000
0000
0000
0000
0000
0320
0000
0000
0000
0000
0000
0000
0000
0000
0000
0000
0000
0000
0000
0000
0000
0000
0000
0000
0000
0000
0000
0000
0000
0000
0000
0000
0000
0000
0000
0000
0000
0000
0000
0000
0000
0000
0000
0000
0000
0000
0000
0000
0032
0000
0000
0000
0000
0000
0000
0000
0000
0000
0000
0000
0000
0000
0000
0000
0000
0000
0000
0000
0000
0000
0000
0000
0000
0000
0000
0000
0000
0000
0000
0000
0000
0000
0000
0000
0000
0000
0000
0000
0000
0000
0000
0000
0000
0000
0000
0000
0000
0000
0000
0000
0000
0000
0000
0000
0000
0000
0000
2003
0000
0000
0000
0000
0000
0000
0000
0000
0000
0000
0000
0000
0000
0000
0000
0000
0000
0000
0000
0000
0000
0000
0000
0000
0000
0000
0000
0000
0000
0000
0000
0000
0000
0000
0000
0000
0000
0000
0000
0000
0000
0000
0000
3000
0000
0000
0000
0000
0000
0000
0000
0000
0000
,
0000
0000
0000
0000
0000
0000
0000
0000
0000
0000
0000
0000
0000
0000
0000
0000
0000
0000
0000
0000
0000
0000
0000
0000
0000
0000
0000
0000
0000
0000
0000
0000
0000
0000
0000
0000
0000
0000
0000
0000
0000
0000
0000
0000
0000
0000
0000
0000
0200
0000
0000
0000
0000
0000
0000
0000
0000
0000
0000
0000
0000
0000
0000
0000
0000
0000
0000
0000
0000
0000
0000
0000
0000
0000
0000
0000
0000
0000
0000
0000
0000
0000
0320
0000
0000
0000
0000
0000
0000
0000
0000
0000
0000
0000
0000
0000
0000
0000
0000
0000
0000
0000
0000
0000
0000
0000
0000
0000
0000
0000
0000
0000
0000
0000
0000
0000
0000
0000
0000
0000
0000
0000
0000
0000
0000
0000
0000
0000
0000
0000
0000
0000
0000
0000
0000
0000
0000
0000
0000
0000
0000
0000
0000
0000
0000
0000
0000
0000
0000
0032
0000
0000
0000
0000
0000
0000
0000
0000
0000
0000
0000
0000
0000
0000
0000
0000
0000
0000
0000
0000
0000
0000
0000
0000
0000
0000
0000
0000
0000
2003
0000
0000
0000
0000
0000
0000
0000
0000
0000
0000
0000
0000
,
0000
0000
0000
0000
0000
0000
0000
0000
0000
0000
0000
0000
0000
0000
0000
0000
0000
0000
0000
0000
0000
0000
0000
0000
0000
0000
0000
0000
0000
0000
0000
0000
0000
0000
0000
0000
3200
0000
0000
0000
0000
0000
0000
0000
0000
0000
0000
0000
0000
0000
0000
0000
0000
0000
0000
0000
0000
0000
0000
0000
0000
0000
0000
0000
0000
0000
0000
0000
0000
0000
0000
0300
0000
0000
0000
0000
0000
0000
0000
0000
0000
0000
0000
0000
0000
0000
0000
0000
0000
0000
0000
0000
0000
0000
0000
0000
0000
0000
0000
0000
0000
0000
0000
0000
0000
0000
0000
0000
0000
0000
0000
0000
0000
0000
0000
0000
0000
0000
0000
0000
0000
0000
0000
0000
0000
0000
0000
0000
0000
0000
0000
0000
0000
0000
0000
0000
0000
0000
0000
0000
0000
0000
0000
0000
0000
0000
0000
0000
0000
0000
0000
0000
0000
0000
0000
0000
0000
0000
0000
0000
0000
0000
0000
0000
0000
0000
0000
0000
0000
0000
0000
0000
0000
0000
0000
0000
0000
0000
0000
0000
0000
0000
0000
0000
0000
0000
0000
0000
0000
0000
0000
0000
,
0000
0000
0000
0000
0000
0000
0000
0000
0000
0000
0000
0000
0000
0000
0000
0000
0000
0000
0000
0000
0000
0000
0000
0000
0000
0000
0000
0000
0000
0000
0000
0000
0000
0000
0000
0000
0000
0000
0000
0000
0000
0000
0000
0000
0000
0000
0000
0000
2000
0000
0000
0000
0000
0000
0000
0000
0000
0000
0000
0000
0000
0000
0000
0000
0000
0000
0000
0000
0000
0000
0000
0000
0000
0000
0000
0000
0000
0000
0000
0000
0000
0000
0000
0000
0000
0000
0000
0000
0000
0000
0000
0000
0000
0000
0000
0000
0000
0000
0000
0000
0000
0000
0000
0000
0000
0000
0000
3002
0000
0000
0000
0000
0000
0000
0000
0000
0000
0000
0000
0000
0000
0000
0000
0000
0000
0000
0000
0000
0000
0000
0000
0000
0000
0000
0000
0000
0000
0000
0000
0000
0000
0000
0000
0000
0000
0000
0000
0000
0000
0000
0000
0203
0000
0000
0000
0000
0000
0000
0000
0000
0000
0000
0000
0000
0000
0000
0000
0000
0000
0000
0000
0000
0000
0000
0000
0000
0000
0000
0000
0000
0000
0000
0000
0000
0000
0000
0000
0000
0302
0000
0000
0000
,
0000
0000
0000
0000
0000
0000
0000
0000
0000
0023
0000
0000
0000
0000
0000
0000
0000
0000
0000
0000
0000
0000
0000
0000
0000
0000
0030
0000
0000
0000
0000
0000
0000
0000
0000
0000
0000
0000
0000
0000
0000
0000
0000
0000
0000
0000
0000
0000
,
0000
0000
0000
0000
0000
0000
0000
0000
0000
0000
0000
0000
0000
0000
0000
0000
0000
0000
0000
0000
0000
0000
0000
0000
0000
0000
0000
0000
0000
0000
0000
0000
2000
0000
0000
0000
0000
0000
0000
0000
0000
0000
0000
0000
0000
0000
0000
0000
0000
0000
0000
0000
0000
0000
0000
0000
0000
0000
0000
0000
0000
0000
0000
0000
0000
0000
0000
0000
0000
0000
0000
0000
0000
0000
0000
0000
0000
0000
0000
0000
0000
0000
0000
0000
0000
0000
0000
0000
0000
0000
0000
0000
0000
0000
0000
0000
0000
0000
0000
3020
0000
0000
0000
0000
0000
0000
0000
0000
0000
0000
0000
0000
0000
0000
0000
0000
0000
0000
0000
0000
0000
0000
0000
0000
0000
0000
0000
0000
0000
0000
0230
0000
0000
0000
0000
0000
0000
0000
0000
0000
0000
0000
0000
0000
0000
0000
0000
0000
0000
0000
0000
0000
0000
0000
0000
0000
0000
0000
0000
0000
0000
0000
0000
0000
0000
0000
0000
0000
0000
0000
0000
0000
0000
0000
0000
0000
0000
0000
0000
0000
0000
0000
0000
0000
0000
0000
0000
0000
0000
0000
0000
0000
,
0000
0000
0000
0000
0302
0000
0000
0000
0000
0000
0000
0000
0000
0000
0000
0000
0000
0000
0000
0000
0000
0000
0000
0000
0000
0000
0000
0000
0000
0000
0000
0000
0000
0000
0000
0000
0000
0000
0000
0000
0000
0000
0000
0000
0000
0000
0000
0000
0023
0000
0000
0000
0000
0000
0000
0000
0000
0000
0000
0000
0000
0000
0000
0000
0000
0000
0000
0000
0000
0000
0000
0000
0000
0000
0000
0000
0000
0000
0000
0000
0000
0000
0030
0000
0000
0000
0000
0000
0000
0000
0000
0000
0000
0000
0000
0000
0000
0000
0000
0000
0000
0000
0000
0000
0000
0000
0000
0000
0000
0000
0000
0000
0000
0000
0000
0000
0000
0000
0000
0000
0000
0000
0000
0000
0000
0000
0000
0000
0000
0000
0000
0000
0000
0000
0000
0000
0000
0000
0000
0000
0000
0000
0000
0000
0000
0000
0000
0000
0000
0000
0000
0000
0000
0000
0000
0000
0000
0000
0000
0000
0000
0000
0000
0000
0000
0000
0000
0000
0000
0000
0000
0000
0000
0000
0000
0000
0000
0000
0000
0000
0000
0000
0000
0000
0000
0000
0000
0000
0000
0000
0000
0000
,
0000
0000
0000
0000
,
0020
0000
0000
0000
0000
0000
0000
0000
0000
0000
0000
0000
0000
0000
0000
0000
0000
0000
0000
0000
0000
0000
0000
0000
0000
0000
0000
0000
0000
0000
0000
0000
0000
0000
0000
0000
0230
0000
0000
0000
0000
0000
0000
0000
0000
0000
0000
0000
0000
0000
0000
0000
0000
0000
0000
0000
0000
0000
0000
0000
0000
0000
0000
0000
0000
0000
0000
0000
0000
0000
0000
0000
0000
0000
0000
0000
0000
0000
0000
2300
0000
0000
0000
0000
0000
0000
0000
0000
0000
0000
0000
0000
0000
0000
0000
0000
0000
0000
0000
0000
0000
0000
0000
0000
0000
0000
0000
0000
0000
0000
0000
0000
0000
0000
0000
0000
0000
0000
0000
0000
0000
0000
0000
0000
0000
0000
0000
0000
0000
0000
0000
0000
0000
0000
0000
0000
0000
0000
3002
0000
0000
0000
0000
0000
0000
0000
0000
0000
0000
0000
0000
0000
0000
0000
0000
0000
0000
0000
0000
0000
0000
0000
0000
0000
0000
0000
0000
0000
0000
0000
0000
0000
0000
0000
0000
0000
0000
0000
0000
0000
0000
0000
0003
0000
0000
0000
0000
0000
0000
0000
0000
0000
,
0000
0000
0000
0000
0000
0000
0000
0000
0000
0000
0000
0000
0000
0000
0000
0000
0000
0000
0000
0000
0000
0000
0000
0000
0000
0000
0000
0000
0000
0000
0000
0000
0000
0000
0000
0000
0000
0000
0000
0000
0000
0000
0000
0000
0000
0000
0000
0000
0020
0000
0000
0000
0000
0000
0000
0000
0000
0000
0000
0000
0000
0000
0000
0000
0000
0000
0000
0000
0000
0000
0000
0000
0000
0000
0000
0000
0000
0000
0000
0000
0000
0000
0230
0000
0000
0000
0000
0000
0000
0000
0000
0000
0000
0000
0000
0000
0000
0000
0000
0000
0000
0000
0000
0000
0000
0000
0000
0000
0000
0000
0000
0000
0000
0000
0000
0000
0000
0000
0000
0000
0000
0000
0000
0000
0000
0000
0000
0000
0000
0000
0000
0000
0000
0000
0000
0000
0000
0000
0000
0000
0000
0000
0000
0000
0000
0000
0000
0000
0000
2300
0000
0000
0000
0000
0000
0000
0000
0000
0000
0000
0000
0000
0000
0000
0000
0000
0000
0000
0000
0000
0000
0000
0000
0000
0000
0000
0000
0000
0000
3002
0000
0000
0000
0000
0000
0000
0000
0000
0000
0000
0000
0000
,
0000
0000
0000
0000
0000
0000
0000
0000
0000
0000
0000
0000
0000
0000
0000
0000
0000
0000
0000
0000
0000
0000
0000
0000
0000
0000
0000
0000
0000
0000
0000
0000
0000
0000
0000
0000
0023
0000
0000
0000
0000
0000
0000
0000
0000
0000
0000
0000
0000
0000
0000
0000
0000
0000
0000
0000
0000
0000
0000
0000
0000
0000
0000
0000
0000
0000
0000
0000
0000
0000
0000
0030
0000
0000
0000
0000
0000
0000
0000
0000
0000
0000
0000
0000
0000
0000
0000
0000
0000
0000
0000
0000
0000
0000
0000
0000
0000
0000
0000
0000
0000
0000
0000
0000
0000
0000
0000
0000
0000
0000
0000
0000
0000
0000
0000
0000
0000
0000
0000
0000
0000
0000
0000
0000
0000
0000
0000
0000
0000
0000
0000
0000
0000
0000
0000
0000
0000
0000
0000
0000
0000
0000
0000
0000
0000
0000
0000
0000
0000
0000
0000
0000
0000
0000
0000
0000
0000
0000
0000
0000
0000
0000
0000
0000
0000
0000
0000
0000
0000
0000
0000
0000
0000
0000
0000
0000
0000
0000
0000
0000
0000
0000
0000
0000
0000
0000
0000
0000
0000
0000
0000
0000
;
